Crack The Sky 1975

      Комментарии к записи Crack The Sky 1975 отключены

Уважаемый гость, на данной странице Вам доступен материал по теме: Crack The Sky 1975. Скачивание возможно на компьютер и телефон через торрент, а также сервер загрузок по ссылке ниже. Рекомендуем также другие статьи из категории «Кейгены».

Crack The Sky 1975.rar
Закачек 3675
Средняя скорость 6311 Kb/s

Crack The Sky 1975

Добавлено: 02 сен 2016, 13:39

Жанр: Heavy Prog

Год выпуска диска: 2002 (Remaster)

Страна: USA

Аудио кодек: FLAC

Тип рипа: image+.cue

Битрейт аудио: lossless

Продолжительность: 53:26

Трэклист:

02. Surf City (3:54)

03. A Sea Epic (6:33)

04. She’s a Dancer (3:54)

05. Robots for Ronnie (4:39)

07. Mind Baby (4:32)

08. I Don’t Have a Tie (3:04)

10. Let Me Go Home (A Visit to the Projects) (3:25)

11. Eileen, I Lean On You (3:49)

13. Dr. Octopus (part 2) (3:08)

Состав:

— John Palumbo / lead vocals, keyboards, guitar

— Jim Griffiths / guitar, harmonies

— Rick Witkowski / guitar, harmonies

— Joe Macre / bass, harmonies

— Joey D’Amico / drums, harmonies

Режим чтения : Достоверность

Использование точного потока : Да

Отключение кэша аудио : Да

Использование указателей C2 : Нет

Коррекция смещения при чтении : 48

Способность читать области Lead-in и Lead-out : Нет

Заполнение пропущенных сэмплов тишиной : Да

Удаление блоков с тишиной в начале и конце : Нет

При вычислениях CRC использовались нулевые сэмплы : Да

Интерфейс : Установленный внешний ASPI-интерфейс

Выходной формат : Внутренние WAV-операции

Формат сэмплов : 44.100 Гц; 16 бит; стерео

Трек | Старт | Длительность | Начальный сектор | Конечный сектор

1 | 0:00.00 | 3:00.15 | 0 | 13514

2 | 3:00.15 | 3:55.47 | 13515 | 31186

3 | 6:55.62 | 6:34.05 | 31187 | 60741

4 | 13:29.67 | 3:54.55 | 60742 | 78346

5 | 17:24.47 | 4:36.73 | 78347 | 99119

6 | 22:01.45 | 4:37.22 | 99120 | 119916

7 | 26:38.67 | 4:30.68 | 119917 | 140234

8 | 31:09.60 | 3:11.70 | 140235 | 154629

9 | 34:21.55 | 6:26.27 | 154630 | 183606

10 | 40:48.07 | 3:25.43 | 183607 | 199024

11 | 44:13.50 | 3:49.70 | 199025 | 216269

12 | 48:03.45 | 2:14.57 | 216270 | 226376

13 | 50:18.27 | 3:08.33 | 226377 | 240509

Пиковый уровень 98.8 %

Качество диапазона 99.9 %

CRC копии 84327AD3

Трек 1 точное извлечение (доверие 2) [9D352EA1]

Трек 2 точное извлечение (доверие 2) [4925A2D8]

Трек 3 точное извлечение (доверие 2) [D8A7F057]

Трек 4 точное извлечение (доверие 2) [09BABE50]

Трек 5 точное извлечение (доверие 2) [88B05D9A]

Трек 6 точное извлечение (доверие 2) [25141CEB]

Трек 7 точное извлечение (доверие 2) [BFB50713]

Трек 8 точное извлечение (доверие 2) [68FF2D04]

Трек 9 точное извлечение (доверие 2) [A88EC9C3]

Трек 10 точное извлечение (доверие 2) [F0CCF53D]

Трек 11 точное извлечение (доверие 2) [1A9D2E6E]

Трек 12 точное извлечение (доверие 2) [D2CBECB1]

Трек 13 точное извлечение (доверие 2) [E874DA24]

Исполнитель: Crack The Sky

Альбом: Crack the Sky

Жанр: Heavy Prog

Формат: MP3 CBR 320 kbps

Размер: 124,32 МБ

Файлообменник: Rusfolder, Deposit

02. Surf City (3:56)

03. Sea Epic (6:34)

04. She’s A Dancer (3:55)

05. Robots For Ronnie (4:37)

07. Mind Baby (4:31)

08. I Don’t Have A Tie (3:12)

10. Let Me Go Home (A Visit to the Projects) (3:26)

11. Eileen, I Lean On You (3:50)

13. Dr. Octopus (part 2) (3:08)

— John Palumbo / lead vocals, keyboards, guitar

— Jim Griffiths / guitar, harmonies

— Rick Witkowski / guitar, harmonies

— Joe Macre / bass, harmonies

— Joey D’Amico / drums, harmonies

Скачать Crack The Sky — Crack the Sky 1975


Статьи по теме